fg603603
武林盟主

[2016] [欧美] [惊悚] [BD-1080P] 莱姆豪斯的杀人魔/英伦谜杀 The.Limehouse.Golem.2016.1080p.BluRay.x264.DTS-FGT 9.01GB

-->

帖子完整标题:莱姆豪斯的杀人魔/英伦谜杀 The.Limehouse.Golem.2016.1080p.BluRay.x264.DTS-FGT 9.01GB



◎译  名 莱姆豪斯的杀人魔/英伦谜杀(台)/英伦迷案
◎片  名 The Limehouse Golem
◎年  代 2016
◎产  地 英国
◎类  别 惊悚 / 恐怖
◎语  言 英语
◎上映日期 2016-09-10(多伦多电影节) / 2017-09-01(英国)
◎IMDb评分 6.3/10 from 18273 users
◎IMDb链接 https://www.imdb.com/title/tt4733640/
◎豆瓣评分 6.6/10 from 3347 users
◎豆瓣链接 https://movie.douban.com/subject/26616731/
◎片  长 109分钟
◎导  演 胡安·卡洛斯·梅迪纳 Juan Carlos Medina
◎编  剧 简·古德曼 Jane Goldman / 彼得·阿克罗伊德 Peter Ackroyd
◎主  演 奥利维亚·库克 Olivia Cooke
      比尔·奈伊 Bill Nighy
      道格拉斯·布斯 Douglas Booth
      埃迪·马森 Eddie Marsan
      玛利亚·瓦沃德 María Valverde
      萨姆·里德 Sam Reid
      亚当·布朗 Adam Brown
      戴维·鲍姆伯 David Bamber
      保罗·里特 Paul Ritter
      丹尼尔·梅斯 Daniel Mays
      马克·坦迪 Mark Tandy
      摩根·华金斯 Morgan Watkins
      彼得·苏利文 Peter Sullivan
      亨利·古德曼 Henry Goodman
      达米安·托马斯 Damien Thomas
      迈克尔·吉恩 Michael Jenn
      西蒙·米考克 Simon Meacock
      阿梅利亚·克劳奇 Amelia Crouch

◎标  签 悬疑 | 英国 | 犯罪 | 惊悚 | 恐怖 | 推理 | 2016 | 剧情

◎简  介

  改编自彼得·克罗伊德小说《丹·雷诺和莱姆豪斯的杀人魔》。讲述1880年伦敦的莱姆豪斯区发生谋杀案,人们认为这是古老生物石巨人所为,但真相另有隐情。

◎获奖情况

  第4届豆瓣电影年度榜单 ?(2017)
  评分最高的恐怖片(提名)

Video
ID : 1
Format : AVC
Format/Info : Advanced Video Codec
Format profile : [email protected]
Format settings, CABAC : Yes
Format settings, ReFrames : 4 frames
Codec ID : V_MPEG4/ISO/AVC
Duration : 1 h 48 min
Bit rate : 10.9 Mb/s
Nominal bit rate : 11.5 Mb/s
Width : 1 920 pixels
Height : 804 pixels
Display aspect ratio : 2.40:1
Frame rate mode : Constant
Frame rate : 24.000 FPS
Color space : YUV
Chroma subsampling : 4:2:0
Bit depth : 8 bits
Scan type : Progressive
Bits/(Pixel*Frame) : 0.293
Stream size : 8.25 GiB (92%)
Title : The.Limehouse.Golem.2016.1080p.BluRay.x264.DTS-FGT
Writing library : x264 core 148 r2795 aaa9aa8
Encoding settings : cabac=1 / ref=4 / deblock=1:-2:-2 / analyse=0x3:0x113 / me=umh / subme=7 / psy=1 / psy_rd=1.00:0.15 / mixed_ref=1 / me_range=16 / chroma_me=1 / trellis=1 / 8x8dct=1 / cqm=0 / deadzone=21,11 / fast_pskip=1 / chroma_qp_offset=-3 / threads=40 / lookahead_threads=3 / sliced_threads=0 / nr=0 / decimate=1 / interlaced=0 / bluray_compat=0 / constrained_intra=0 / bframes=3 / b_pyramid=2 / b_adapt=1 / b_bias=0 / direct=3 / weightb=1 / open_gop=0 / weightp=2 / keyint=250 / keyint_min=25 / scenecut=40 / intra_refresh=0 / rc_lookahead=50 / rc=abr / mbtree=1 / bitrate=11500 / ratetol=1.0 / qcomp=0.60 / qpmin=0 / qpmax=69 / qpstep=4 / vbv_maxrate=31250 / vbv_bufsize=31250 / nal_hrd=none / filler=0 / ip_ratio=1.40 / aq=1:1.00
Language : English
Default : Yes
Forced : No

Audio
ID : 2
Format : DTS
Format/Info : Digital Theater Systems
Mode : 16
Format settings, Endianness : Big
Codec ID : A_DTS
Duration : 1 h 48 min
Bit rate mode : Constant
Bit rate : 768 kb/s
Channel(s) : 6 channels
Channel positions : Front: L C R, Side: L R, LFE
Sampling rate : 48.0 kHz
Frame rate : 93.750 FPS (512 spf)
Bit depth : 16 bits
Compression mode : Lossy
Stream size : 597 MiB (6%)
Title : The.Limehouse.Golem.2016.1080p.BluRay.x264.DTS-FGT
Language : English
Default : Yes
Forced : No

Menu
00:00:00.000 : en:00:00:00.000
00:08:02.375 : en:00:08:02.375
00:17:45.333 : en:00:17:45.333
00:24:37.958 : en:00:24:37.958
00:36:20.125 : en:00:36:20.125
00:46:17.750 : en:00:46:17.750
00:55:19.625 : en:00:55:19.625
01:07:52.333 : en:01:07:52.333
01:15:51.292 : en:01:15:51.292
01:24:56.125 : en:01:24:56.125
01:31:49.208 : en:01:31:49.208
01:38:13.208 : en:01:38:13.208





1 个附件 售价 大小 下载 时间

The.Limehouse.Golem.2016.1080p.BluRay.x264.DTS-FGT.zip 0 金币 90.73K 231 次 2天前

#1楼
发帖时间:2020-11-22 09:47:46   |   回复数:0
游客组