fg603603
武林盟主

[2017] [其他] [动作] [BD-1080P] 俠盜聯盟 The.Adventurers.2017.CHINESE.1080p.BluRay.x264.DD5.1-FGT 8.73GB

-->

帖子完整标题:俠盜聯盟 The.Adventurers.2017.CHINESE.1080p.BluRay.x264.DD5.1-FGT 8.73GB



◎译  名 侠盗联盟/The Adventurers
◎片  名 俠盜聯盟
◎年  代 2017
◎产  地 中国大陆,中国香港,捷克
◎类  别 动作 / 冒险
◎语  言 汉语普通话,英语,法语,俄语
◎上映日期 2017-08-11(中国大陆)
◎IMDb评分 5.6/10 from 2630 users
◎IMDb链接 https://www.imdb.com/title/tt5866930/
◎豆瓣评分 5.2/10 from 58548 users
◎豆瓣链接 https://movie.douban.com/subject/25858758/
◎片  长 108分钟
◎导  演 冯德伦 Stephen Fung
◎编  剧 冯德伦 Stephen Fung / 罗耀辉 Yiu Fai Lo / 哈智超 Zhichao Ha / 张志光 Chi-Kwong Cheung / 黄小庄 Xiaozhuang Huang
◎主  演 刘德华 Andy Lau
      舒淇 Qi Shu
      张静初 Jingchu Zhang
      杨祐宁 Yo Yang
      让·雷诺 Jean Reno
      曾志伟 Eric Tsang
      沙溢 Yi Sha
      游天翼 Tianyi You
      张益群 Yiqun Zhang
      戴维·鲍尔斯 David Bowles
      埃里克达考斯塔 Eric Da Costa
      丹尼尔达顿斯沃博达 Daniel Daden Svoboda

◎标  签 动作 | 犯罪 | 香港 | 2017 | 冒险 | 中国 | 剧情 | 港台

◎简  介

  十七世纪西班牙皇室赠送给中国皇帝的礼物GAIA,而今虽然被分为森之瞳、灵之泉、命之翼三份,却依然价值连城,令人垂涎。出狱不久的江洋大盗张丹(刘德华 饰)将目标锁定在这几件宝物上,他找到资深黑客小宝(杨祐宁 饰)以及女贼叶红(舒淇 饰),成功混进戛纳拍卖会场, 在交手多次的法国警探皮埃尔(让·雷诺 饰)鼻子底下偷走了命之翼,最终交到幕后老板金刚(曾志伟 饰)的手上。连上坐牢前偷到的森之瞳,只差最后的灵之泉即可将GAIA重新合在一起。
  
  而就在此时,皮埃尔找到当初遭到张丹背叛的前女友Amber Li(张静初 饰),展开对大盗们新一轮的追捕……

◎获奖情况

  第4届豆瓣电影年度榜单 ?(2017)
  8月最受关注电影(提名)

Video
ID : 1
Format : AVC
Format/Info : Advanced Video Codec
Format profile : [email protected]
Format settings, CABAC : Yes
Format settings, ReFrames : 4 frames
Codec ID : V_MPEG4/ISO/AVC
Duration : 1 h 47 min
Bit rate : 10.8 Mb/s
Nominal bit rate : 11.5 Mb/s
Width : 1 920 pixels
Height : 804 pixels
Display aspect ratio : 2.40:1
Frame rate mode : Constant
Frame rate : 24.000 FPS
Color space : YUV
Chroma subsampling : 4:2:0
Bit depth : 8 bits
Scan type : Progressive
Bits/(Pixel*Frame) : 0.291
Stream size : 8.07 GiB (93%)
Title : The.Adventurers.2017.CHINESE.1080p.BluRay.x264.DD5.1-FGT
Writing library : x264 core 148 r2795 aaa9aa8
Encoding settings : cabac=1 / ref=4 / deblock=1:-2:-2 / analyse=0x3:0x113 / me=umh / subme=9 / psy=1 / psy_rd=1.00:0.15 / mixed_ref=1 / me_range=16 / chroma_me=1 / trellis=2 / 8x8dct=1 / cqm=0 / deadzone=21,11 / fast_pskip=1 / chroma_qp_offset=-3 / threads=24 / lookahead_threads=3 / sliced_threads=0 / nr=0 / decimate=1 / interlaced=0 / bluray_compat=0 / constrained_intra=0 / bframes=3 / b_pyramid=2 / b_adapt=2 / b_bias=0 / direct=3 / weightb=1 / open_gop=0 / weightp=2 / keyint=250 / keyint_min=25 / scenecut=40 / intra_refresh=0 / rc_lookahead=50 / rc=abr / mbtree=1 / bitrate=11500 / ratetol=1.0 / qcomp=0.60 / qpmin=0 / qpmax=69 / qpstep=4 / vbv_maxrate=31250 / vbv_bufsize=31250 / nal_hrd=none / filler=0 / ip_ratio=1.40 / aq=1:1.00
Language : English
Default : Yes
Forced : No

Audio
ID : 2
Format : AC-3
Format/Info : Audio Coding 3
Format settings, Endianness : Big
Codec ID : A_AC3
Duration : 1 h 47 min
Bit rate mode : Constant
Bit rate : 640 kb/s
Channel(s) : 6 channels
Channel positions : Front: L C R, Side: L R, LFE
Sampling rate : 48.0 kHz
Frame rate : 31.250 FPS (1536 spf)
Bit depth : 16 bits
Compression mode : Lossy
Stream size : 490 MiB (5%)
Title : The.Adventurers.2017.CHINESE.1080p.BluRay.x264.DD5.1-FGT
Language : Chinese
Service kind : Complete Main
Default : No
Forced : No

Text
ID : 3
Format : UTF-8
Codec ID : S_TEXT/UTF8
Codec ID/Info : UTF-8 Plain Text
Language : English
Default : Yes
Forced : Yes

Menu
00:00:00.000 : en:Chapter 01
00:08:04.000 : en:Chapter 02
00:19:07.916 : en:Chapter 03
00:26:16.416 : en:Chapter 04
00:34:50.875 : en:Chapter 05
00:44:29.791 : en:Chapter 06
00:55:30.500 : en:Chapter 07
01:01:27.833 : en:Chapter 08
01:11:12.708 : en:Chapter 09
01:19:45.666 : en:Chapter 10
01:29:51.208 : en:Chapter 11
01:39:49.250 : en:Chapter 12





1 个附件 售价 大小 下载 时间

The.Adventurers.2017.CHINESE.1080p.BluRay.x264.DD5.1-FGT.zip 0 金币 87.95K 1099 次 7天前

#1楼
发帖时间:2020-11-22 10:09:02   |   回复数:0
游客组