travismk
一代宗师

[更 早] [欧美] [剧情] [BD-1080P] 我们妈妈的房子/苦海七雏 Our.Mothers.House.1967.1080p.BluRay.x264-HANDJOB 7.80GB

-->

帖子完整标题:我们妈妈的房子/苦海七雏 Our.Mothers.House.1967.1080p.BluRay.x264-HANDJOB 7.80GB



◎译  名 我们妈妈的房子/苦海七雏
◎片  名 Our Mother's House
◎年  代 1967
◎产  地 英国
◎类  别 剧情 / 惊悚
◎语  言 英语
◎上映日期 1967-10-09
◎IMDb评分 7.3/10 from 1639 users
◎IMDb链接 https://www.imdb.com/title/tt0062089/
◎豆瓣评分 /10 from 0 users
◎豆瓣链接 https://movie.douban.com/subject/1295024/
◎片  长 104 分钟
◎导  演 杰克·克莱顿 Jack Clayton
◎编  剧 哈雅·哈拉里特 Haya Harareet / Jeremy Brooks
◎主  演 德克·博加德 Dirk Bogarde
      帕梅拉·富兰克林 Pamela Franklin

◎标  签 英国电影 | 杰克·克莱顿 | DirkBogarde | 英國 | 1960s | 英国 | 剧情 | 60

◎简  介

  When their deeply religious mother dies, the seven Hook children bury her in the garden and continue life as normal. Then their absent father , Charlie, reappears...

◎获奖情况

  第28届威尼斯电影节 ?(1967)
  主竞赛单元金狮奖(提名) 杰克·克莱顿

Video
ID : 1
Format : AVC
Format/Info : Advanced Video Codec
Format profile : [email protected]
Format settings : CABAC / 4 Ref Frames
Format settings, CABAC : Yes
Format settings, Reference frames : 4 frames
Codec ID : V_MPEG4/ISO/AVC
Duration : 1 h 39 min
Bit rate : 10.9 Mb/s
Width : 1 792 pixels
Height : 1 080 pixels
Display aspect ratio : 5:3
Frame rate mode : Constant
Frame rate : 25.000 FPS
Color space : YUV
Chroma subsampling : 4:2:0
Bit depth : 8 bits
Scan type : Progressive
Bits/(Pixel*Frame) : 0.226
Stream size : 7.62 GiB (98%)
Writing library : x264 core 157 r2935 545de2f
Encoding settings : cabac=1 / ref=4 / deblock=1:-3:-3 / analyse=0x3:0x133 / me=umh / subme=10 / psy=1 / psy_rd=1.00:0.00 / mixed_ref=1 / me_range=32 / chroma_me=1 / trellis=2 / 8x8dct=1 / cqm=0 / deadzone=21,11 / fast_pskip=0 / chroma_qp_offset=-2 / threads=18 / lookahead_threads=4 / sliced_threads=0 / nr=0 / decimate=0 / interlaced=0 / bluray_compat=0 / constrained_intra=0 / bframes=16 / b_pyramid=2 / b_adapt=2 / b_bias=0 / direct=3 / weightb=1 / open_gop=0 / weightp=1 / keyint=250 / keyint_min=25 / scenecut=40 / intra_refresh=0 / rc_lookahead=60 / rc=crf / mbtree=0 / crf=20.0 / qcomp=0.60 / qpmin=0 / qpmax=69 / qpstep=4 / vbv_maxrate=62500 / vbv_bufsize=78125 / crf_max=0.0 / nal_hrd=none / filler=0 / ip_ratio=1.40 / pb_ratio=1.30 / aq=2:1.00
Default : Yes
Forced : No
Color range : Limited
Color primaries : BT.709
Transfer characteristics : BT.709
Matrix coefficients : BT.709

Audio
ID : 2
Format : AC-3
Format/Info : Audio Coding 3
Commercial name : Dolby Digital
Codec ID : A_AC3
Duration : 1 h 39 min
Bit rate mode : Constant
Bit rate : 256 kb/s
Channel(s) : 2 channels
Channel layout : L R
Sampling rate : 48.0 kHz
Frame rate : 31.250 FPS (1536 SPF)
Compression mode : Lossy
Stream size : 183 MiB (2%)
Language : English
Service kind : Complete Main
Default : Yes
Forced : No

Menu
00:00:00.120 : :Chapter 1
00:01:11.960 : :Chapter 2
00:16:23.000 : :Chapter 3
00:29:35.840 : :Chapter 4
00:44:04.160 : :Chapter 5
01:04:29.600 : :Chapter 6
01:20:54.440 : :Chapter 7





1 个附件 售价 大小 下载 时间

Our.Mothers.House.1967.1080p.BluRay.x264-HANDJOB.zip 0 金币 39.66K 112 次 2天前

#1楼
发帖时间:2020-11-22 21:48:59   |   回复数:0
游客组