travismk
一代宗师

[更 早] [欧美] [科幻] [BD-1080P] 恐怖之血 Blood.Of.Ghastly.Horror.1967.1080p.BluRay.x264-HANDJOB 7.44GB

-->

帖子完整标题:恐怖之血 Blood.Of.Ghastly.Horror.1967.1080p.BluRay.x264-HANDJOB 7.44GB



◎译  名 恐怖之血
◎片  名 Blood of Ghastly Horror
◎年  代 1972
◎产  地 美国
◎类  别 科幻 / 恐怖
◎语  言 英语
◎上映日期 2001-10-28
◎IMDb评分 2.7/10 from 541 users
◎IMDb链接 https://www.imdb.com/title/tt0068291/
◎豆瓣评分 /10 from 0 users
◎豆瓣链接 https://movie.douban.com/subject/2977198/
◎片  长 87 分钟
◎导  演 阿尔·亚当森 Al Adamson
◎编  剧 Dick Poston / Samuel M. Sherman / 阿尔·亚当森 Al Adamson
◎主  演 约翰·卡拉丁 John Carradine
      肯特·泰勒 Kent Taylor
      汤米·柯克 Tommy Kirk
      Regina Carrol
      Tacey Robbins

◎标  签 恐怖

◎简  介

  Al Adamson, shameless purveyor of countless horror anti-classics, juggles around most of the footage from his 1965 clunker Psycho-A-Go-Go after dressing up and re-releasing it on no less than three prior occasions (under a wide assortment of titles -- see below) with a few incomprehensible subplots added to further confuse audiences into thinking they were watching something else. The initial premise involves an insane Vietnam veteran being fitted with a brain implant by mad medic John Carradine (a regular Adamson player by this point) and used as a remote-control zombie by a cabal of jewel thieves. Their pet maniac subsequently blows a gasket, breaks his programming and turns on his controllers, strangles some dancing girls, then gets his revenge on Carradine. Enter gratuitous subplot #1 as the electro-fiend heads straight for Lake Tahoe (can you blame him?), where his rampage continues until he is eventually killed by the cops. Splice in gratuitous subplot #2: The late psycho's embittered pop is also a monster-making mad scientist, who avenges his son's death by mutilating Carradine's buxom daughter. None of the aforementioned plot combinations can disguise Adamson's trademark style -- i.e. cheap gore, cardboard sets, hideous acting, and so on. Viewers who manage to make sense of this piecework monstrosity should switch off their VCRs and seek immediate professional help. Sundry title variations include The Man with the Synthetic Brain, The Fiend with the Atomic Brain, The Fiend with the Electronic Brain, The Fiend with the Synthetic Brain... you should begin to notice a vague pattern here. ~ Cavett Binion, All Movie Guide

Video
ID : 1
Format : AVC
Format/Info : Advanced Video Codec
Format profile : [email protected]
Format settings : CABAC / 5 Ref Frames
Format settings, CABAC : Yes
Format settings, Reference frames : 5 frames
Codec ID : V_MPEG4/ISO/AVC
Duration : 1 h 25 min
Bit rate : 11.8 Mb/s
Width : 1 920 pixels
Height : 816 pixels
Display aspect ratio : 2.35:1
Frame rate mode : Constant
Frame rate : 23.976 (24000/1001/189150) FPS
Color space : YUV
Chroma subsampling : 4:2:0
Bit depth : 8 bits
Scan type : Progressive
Bits/(Pixel*Frame) : 0.315
Stream size : 7.05 GiB (95%)
Writing library : x264 core 157 r2935 545de2f
Encoding settings : cabac=1 / ref=5 / deblock=1:-3:-3 / analyse=0x3:0x133 / me=umh / subme=10 / psy=1 / psy_rd=1.00:0.00 / mixed_ref=1 / me_range=32 / chroma_me=1 / trellis=2 / 8x8dct=1 / cqm=0 / deadzone=21,11 / fast_pskip=0 / chroma_qp_offset=-2 / threads=6 / lookahead_threads=1 / sliced_threads=0 / nr=0 / decimate=0 / interlaced=0 / bluray_compat=0 / constrained_intra=0 / bframes=16 / b_pyramid=2 / b_adapt=2 / b_bias=0 / direct=3 / weightb=1 / open_gop=0 / weightp=2 / keyint=240 / keyint_min=24 / scenecut=40 / intra_refresh=0 / rc_lookahead=60 / rc=crf / mbtree=0 / crf=20.8 / qcomp=0.60 / qpmin=0 / qpmax=69 / qpstep=4 / vbv_maxrate=62500 / vbv_bufsize=78125 / crf_max=0.0 / nal_hrd=none / filler=0 / ip_ratio=1.40 / pb_ratio=1.30 / aq=2:1.00
Default : Yes
Forced : No
Color range : Limited
Color primaries : BT.709
Transfer characteristics : BT.709
Matrix coefficients : BT.709

Audio #1
ID : 2
Format : FLAC
Format/Info : Free Lossless Audio Codec
Codec ID : A_FLAC
Duration : 1 h 25 min
Bit rate mode : Variable
Bit rate : 586 kb/s
Channel(s) : 2 channels
Channel layout : L R
Sampling rate : 48.0 kHz
Frame rate : 11.719 FPS (4096 SPF)
Bit depth : 16 bits
Compression mode : Lossless
Stream size : 358 MiB (5%)
Writing library : libFLAC 1.2.1 (UTC 2007-09-17)
Language : English
Default : Yes
Forced : No

Audio #2
ID : 3
Format : AAC LC
Format/Info : Advanced Audio Codec Low Complexity
Codec ID : A_AAC-2
Duration : 1 h 25 min
Bit rate : 68.5 kb/s
Channel(s) : 2 channels
Channel layout : L R
Sampling rate : 48.0 kHz
Frame rate : 46.875 FPS (1024 SPF)
Compression mode : Lossy
Stream size : 41.8 MiB (1%)
Title : Commentary wtih Producer/Distributor Samuel M. Sherman
Language : English
Default : No
Forced : No

Text
ID : 4
Format : UTF-8
Codec ID : S_TEXT/UTF8
Codec ID/Info : UTF-8 Plain Text
Duration : 1 h 19 min
Bit rate : 37 b/s
Count of elements : 702
Stream size : 21.5 KiB (0%)
Language : English
Default : No
Forced : No

Menu
00:00:00.000 : :Chapter 01
00:02:00.203 : :Chapter 02
00:20:36.652 : :Chapter 03
00:42:57.825 : :Chapter 04
01:06:28.902 : :Chapter 05
01:24:45.998 : :Chapter 06





1 个附件 售价 大小 下载 时间

Blood.Of.Ghastly.Horror.1967.1080p.BluRay.x264-HANDJOB.zip 0 金币 37.90K 84 次 2天前

#1楼
发帖时间:2020-11-22 21:53:11   |   回复数:0
游客组