travismk
一代宗师

[更 早] [其他] [动作] [BD-1080P] 孔雀王子 The.Peacock.King.1988.CHINESE.1080p.BluRay.x264.DTS-FGT 7.67GB

-->

帖子完整标题:孔雀王子 The.Peacock.King.1988.CHINESE.1080p.BluRay.x264.DTS-FGT 7.67GB



◎译  名 Legend of the Phoenix/Peacock King/Peacock Prince/孔雀王
◎片  名 孔雀王子
◎年  代 1988
◎产  地 中国香港,日本
◎类  别 动作 / 奇幻 / 冒险
◎语  言 粤语,日语
◎上映日期 1988-12-10(日本) / 1989-03-13(中国香港)
◎IMDb评分 6/10 from 260 users
◎IMDb链接 https://www.imdb.com/title/tt0093367/
◎豆瓣评分 6.5/10 from 2257 users
◎豆瓣链接 https://movie.douban.com/subject/1307445/
◎片  长 86分钟
◎导  演 蓝乃才 Nam Nai Choi / 元彪 Biao Yuen
◎编  剧 邓景生 Edward Tang / 江香生 Heung Sang Kong / 荻野真 Makoto Ogino / 桥本以藏 Iz? Hashimoto
◎主  演 元彪 Biao Yuen
      三上博史 Hiroshi Mikami
      安田成美 Narumi Yasuda
      叶蕴仪 Gloria Yip
      王小凤 Pauline Wong
      绪形拳 Ken Ogata
      高雄 Eddy Ko
      刘家辉 Chia Hui Liu
      左顿平 Tonpei Hidari
      肯·博伊尔 Ken Boyle
      惠英红 Kara Wai Ying Hung
      郭追 Philip Kwok
      竹田高利 Takatoshi Takeda
      元彬 Bun Yuen

◎标  签 香港 | 香港电影 | 元彪 | 魔幻 | 动作 | 1988 | 蓝乃才 | 孔雀王

◎简  介

  很久很久以前,地狱王被打败封印与地底深处,如今,蠢蠢欲动的他企图打破封印,重返人间。慈空和尚(绪形拳 饰)和孤峰法师(高雄 饰)得知了这一消息,便派出了弟子孔雀(元彪 饰)与吉祥果(三上博史 饰)前去应对。
  
  在地狱使者阿修罗(叶蕴仪 饰)和罗我(王小凤 饰)打开的魔洞之中,孔雀和吉祥果同地狱王展开了激烈的战斗,交锋之中,阿修罗意外丧生,于是,孔雀带着阿修罗的遗体返回西藏,希望自己的师傅能够挽回她的性命。之后,孔雀意外得知他和吉祥果竟然是失散多年的兄弟,亦是世界上唯二能够打败地狱王的存在,背负着巨大的使命,孔雀和吉祥果踏上了征途。

Video
ID : 1
Format : AVC
Format/Info : Advanced Video Codec
Format profile : [email protected]
Format settings : CABAC / 4 Ref Frames
Format settings, CABAC : Yes
Format settings, Reference frames : 4 frames
Codec ID : V_MPEG4/ISO/AVC
Duration : 1 h 24 min
Bit rate : 11.5 Mb/s
Width : 1 920 pixels
Height : 1 020 pixels
Display aspect ratio : 1.882
Frame rate mode : Constant
Frame rate : 23.976 (24000/1001/189150) FPS
Color space : YUV
Chroma subsampling : 4:2:0
Bit depth : 8 bits
Scan type : Progressive
Bits/(Pixel*Frame) : 0.245
Stream size : 6.78 GiB (88%)
Title : The.Peacock.King.1988.CHINESE.1080p.BluRay.x264.DTS-FGT
Writing library : x264 core 148 r2795M aaa9aa8
Encoding settings : cabac=1 / ref=4 / deblock=1:-2:-2 / analyse=0x3:0x113 / me=umh / subme=9 / psy=1 / psy_rd=1.00:0.15 / mixed_ref=1 / me_range=16 / chroma_me=1 / trellis=2 / 8x8dct=1 / cqm=0 / deadzone=21,11 / fast_pskip=1 / chroma_qp_offset=-3 / threads=24 / lookahead_threads=3 / sliced_threads=0 / nr=0 / decimate=1 / interlaced=0 / bluray_compat=0 / constrained_intra=0 / bframes=3 / b_pyramid=2 / b_adapt=1 / b_bias=0 / direct=3 / weightb=1 / open_gop=0 / weightp=2 / keyint=250 / keyint_min=25 / scenecut=40 / intra_refresh=0 / rc_lookahead=50 / rc=2pass / mbtree=1 / bitrate=11500 / ratetol=1.0 / qcomp=0.60 / qpmin=0 / qpmax=69 / qpstep=4 / cplxblur=20.0 / qblur=0.5 / vbv_maxrate=31250 / vbv_bufsize=31250 / nal_hrd=none / filler=0 / ip_ratio=1.40 / aq=1:1.00
Language : Chinese
Default : Yes
Forced : No

Audio
ID : 2
Format : DTS
Format/Info : Digital Theater Systems
Codec ID : A_DTS
Duration : 1 h 24 min
Bit rate mode : Constant
Bit rate : 1 509 kb/s
Channel(s) : 6 channels
Channel layout : C L R Ls Rs LFE
Sampling rate : 48.0 kHz
Frame rate : 93.750 FPS (512 SPF)
Bit depth : 16 bits
Compression mode : Lossy
Stream size : 911 MiB (12%)
Title : The.Peacock.King.1988.CHINESE.1080p.BluRay.x264.DTS-FGT
Language : Chinese
Default : Yes
Forced : No

Text
ID : 3
Format : UTF-8
Codec ID : S_TEXT/UTF8
Codec ID/Info : UTF-8 Plain Text
Duration : 1 h 19 min
Bit rate : 36 b/s
Count of elements : 730
Stream size : 20.9 KiB (0%)
Language : English
Default : Yes
Forced : No

Menu
00:00:00.000 : en:Chapter 01
00:07:08.761 : en:Chapter 02
00:13:00.738 : en:Chapter 03
00:22:53.955 : en:Chapter 04
00:27:33.902 : en:Chapter 05
00:36:43.326 : en:Chapter 06
00:43:14.091 : en:Chapter 07
00:50:11.508 : en:Chapter 08
00:58:23.416 : en:Chapter 09
01:05:07.278 : en:Chapter 10
01:12:51.200 : en:Chapter 11
01:19:27.888 : en:Chapter 12





1 个附件 售价 大小 下载 时间

The.Peacock.King.1988.CHINESE.1080p.BluRay.x264.DTS-FGT.zip 0 金币 39.04K 2156 次 1月前

#1楼
发帖时间:2020-11-24 20:18:09   |   回复数:2
liyouchai
隐世仙人♂
谢谢楼主分享资源
1月前 #2楼
HDMove
小有名气
国语嘛
1月前 #3楼
游客组