travismk
一代宗师

[更 早] [其他] [喜剧] [BD-1080P] 屍家重地 Mortuary.Blues.1990.CHINESE.1080p.BluRay.x264.DTS-FGT 8.36GB

-->

帖子完整标题:屍家重地 Mortuary.Blues.1990.CHINESE.1080p.BluRay.x264.DTS-FGT 8.36GB



◎译  名 尸家重地/Mortuary Blues
◎片  名 屍家重地
◎年  代 1990
◎产  地 中国香港
◎类  别 喜剧 / 恐怖
◎语  言 粤语
◎上映日期 1990-08-11
◎IMDb评分 5.8/10 from 102 users
◎IMDb链接 https://www.imdb.com/title/tt0100598/
◎豆瓣评分 7.1/10 from 8915 users
◎豆瓣链接 https://movie.douban.com/subject/1300085/
◎片  长 92分钟
◎导  演 刘镇伟 Jeffrey Lau
◎编  剧 刘镇伟 Jeffrey Lau
◎主  演 吴君如 Sandra Ng
      陈淑兰 Sheila Chan
      叶子楣 Amy Yip
      卢冠廷 Lowell Lo
      元奎 Corey Yuen
      白文彪 Man-Biu Bak
      陈龙 Peter Chan Lung
      陈硕 Stone Chan
      曹查理 Charlie Cho
      朱慧珊 Jaclyn Chu
      钟发 Fat Chung
      侯焕玲 Woon Ling Hau
      顾嘉玲 Colette Koo
      卢大伟 David Lo
      宣彤 Tong Suen
      太保 Po Tai
      杜德伟 Alex To
      陈远佳 Yuen Kai Chan

◎标  签 喜剧 | 香港 | 僵尸 | 恐怖 | 香港电影 | 尸家重地 | 刘镇伟 | 吴君如

◎简  介

  三百年前,一个岛上渔村的村民将一队路过的护送贡品官兵尽数杀死,并不慎惊醒了一具秦尸,借宝物力量将其封印。自此,此地村民不事生产却凭借祖传财宝衣食无忧。驻岛警察石春(元奎 饰)怀疑村民制毒谋利,令两名助手陈龙士(杜德伟 饰)、小钢炮调查多时但一无所获。是日,一戏班来岛上演出,疑心戏班与村民里应外合贩毒的石春出面调查,不期然使戏班的九姐(吴君如 饰)对自己一见钟情。当夜,九姐和戏班中的阿秋(陈淑兰 饰)、林老师(卢冠廷 饰)偶然得到从村民中泄露出来的藏宝图,三人试图将村中宝藏据为己有,却惊动秦尸令其再出人间,复仇的冤魂在村中大开杀戒,石春为斩妖除魔,犯险寻找古时宝物——钟馗宝剑。

Video
ID : 1
Format : AVC
Format/Info : Advanced Video Codec
Format profile : [email protected]
Format settings : CABAC / 4 Ref Frames
Format settings, CABAC : Yes
Format settings, Reference frames : 4 frames
Codec ID : V_MPEG4/ISO/AVC
Duration : 1 h 31 min
Bit rate : 11.5 Mb/s
Width : 1 920 pixels
Height : 1 080 pixels
Display aspect ratio : 16:9
Frame rate mode : Constant
Frame rate : 24.000 FPS
Color space : YUV
Chroma subsampling : 4:2:0
Bit depth : 8 bits
Scan type : Progressive
Bits/(Pixel*Frame) : 0.231
Stream size : 7.39 GiB (88%)
Title : Mortuary.Blues.1990.CHINESE.1080p.BluRay.x264.DTS-FGT
Writing library : x264 core 148 r2795M aaa9aa8
Encoding settings : cabac=1 / ref=4 / deblock=1:-2:-2 / analyse=0x3:0x113 / me=umh / subme=9 / psy=1 / psy_rd=1.00:0.15 / mixed_ref=1 / me_range=16 / chroma_me=1 / trellis=2 / 8x8dct=1 / cqm=0 / deadzone=21,11 / fast_pskip=1 / chroma_qp_offset=-3 / threads=24 / lookahead_threads=3 / sliced_threads=0 / nr=0 / decimate=1 / interlaced=0 / bluray_compat=0 / constrained_intra=0 / bframes=3 / b_pyramid=2 / b_adapt=1 / b_bias=0 / direct=3 / weightb=1 / open_gop=0 / weightp=2 / keyint=250 / keyint_min=25 / scenecut=40 / intra_refresh=0 / rc_lookahead=50 / rc=2pass / mbtree=1 / bitrate=11500 / ratetol=1.0 / qcomp=0.60 / qpmin=0 / qpmax=69 / qpstep=4 / cplxblur=20.0 / qblur=0.5 / vbv_maxrate=31250 / vbv_bufsize=31250 / nal_hrd=none / filler=0 / ip_ratio=1.40 / aq=1:1.00
Language : Chinese
Default : Yes
Forced : No

Audio
ID : 2
Format : DTS
Format/Info : Digital Theater Systems
Codec ID : A_DTS
Duration : 1 h 31 min
Bit rate mode : Constant
Bit rate : 1 509 kb/s
Channel(s) : 2 channels
Channel layout : L R
Sampling rate : 48.0 kHz
Frame rate : 93.750 FPS (512 SPF)
Bit depth : 16 bits
Compression mode : Lossy
Stream size : 993 MiB (12%)
Title : Mortuary.Blues.1990.CHINESE.1080p.BluRay.x264.DTS-FGT
Language : Chinese
Default : Yes
Forced : No

Text
ID : 3
Format : UTF-8
Codec ID : S_TEXT/UTF8
Codec ID/Info : UTF-8 Plain Text
Duration : 1 h 28 min
Bit rate : 51 b/s
Count of elements : 1268
Stream size : 33.5 KiB (0%)
Language : English
Default : Yes
Forced : No

Menu
00:00:00.000 : en:Chapter 01
00:03:51.791 : en:Chapter 02
00:09:39.500 : en:Chapter 03
00:17:19.000 : en:Chapter 04
00:26:25.500 : en:Chapter 05
00:33:47.916 : en:Chapter 06
00:45:02.541 : en:Chapter 07
00:56:05.583 : en:Chapter 08
01:03:38.875 : en:Chapter 09
01:11:05.416 : en:Chapter 10
01:15:31.625 : en:Chapter 11
01:23:48.291 : en:Chapter 12





1 个附件 售价 大小 下载 时间

Mortuary.Blues.1990.CHINESE.1080p.BluRay.x264.DTS-FGT.zip 0 金币 42.47K 1372 次 1月前

#1楼
发帖时间:2020-11-24 20:32:27   |   回复数:2
jokingcheung
一代宗师
谢谢分享
1月前 #2楼
liyouchai
隐世仙人♂
谢谢楼主分享资源
1月前 #3楼
游客组