travismk
一代宗师

[更 早] [其他] [剧情] [BD-1080P] 邊緣人 Man.on.the.Brink.1981.CHINESE.1080p.BluRay.x264.DTS-FGT 9.18GB

-->

帖子完整标题:邊緣人 Man.on.the.Brink.1981.CHINESE.1080p.BluRay.x264.DTS-FGT 9.18GB



◎译  名 边缘人/Man on the Brink
◎片  名 邊緣人
◎年  代 1981
◎产  地 中国香港
◎类  别 剧情 / 犯罪
◎语  言 粤语
◎上映日期 1981-01-08
◎IMDb评分 7.2/10 from 60 users
◎IMDb链接 https://www.imdb.com/title/tt0185188/
◎豆瓣评分 7.9/10 from 1051 users
◎豆瓣链接 https://movie.douban.com/subject/1727285/
◎片  长 98分钟
◎导  演 章国明 Gwok-Ming Cheung
◎编  剧 章国明 Gwok-Ming Cheung / 张键 Kin Cheung
◎主  演 艾迪 Eddie Chan
      冯爱慈 Ada FUNG
      金兴贤 Hing-Yin Kam
      嘉伦 Lun Chia
      刘雅丽 Chic Lau
      江毅 Ai Kong
      曾楚霖 Choh-Lam Tsang
      苏杏璇 Hang Shuen So
      冯敬文 Ging Man Fung
      林国华 Ardy Lam

◎标  签 香港 | 新浪潮 | 犯罪 | 1981 | 卧底 | 警匪 | 剧情 | 香港新浪潮

◎简  介

  何永潮(艾迪 饰)虽然出生在黑社会地区,却在长大之后报考了警校最终以出色的成绩毕业成为了一名警察。然而,何永潮上岗之后的第一个任务,竟然就是被派往黑社会做卧底。何永潮凭借着过人的智慧和勇气隐藏身份,同敌人周旋,向上司提供了许多重要的情报,深受上司的信赖,可是并不理解这一切的女友阿芳却含恨离开了何永潮。
  
  何永潮真心热爱着这份打击罪恶的职业,甘愿为其牺牲一切,然而,当看见自己的前辈亚泰(金兴贤 饰)在任务中不幸丧生之后,何永潮的观念发生了转变,他想要回归正常安全的生活之中。上司答应何永潮,只要完成最后一个任务就将他调回警队。

◎获奖情况

  第19届台北金马影展 ?(1982)
  金马奖最佳剧情片(提名)
  金马奖最佳导演 章国明
  金马奖最佳男主角 艾迪
  金马奖最佳男配角(提名) 金兴贤
  金马奖最佳原著剧本 张键
  金马奖最佳原创配乐(提名) 顾嘉辉
  金马奖最佳原创歌曲(提名)

Video
ID : 1
Format : AVC
Format/Info : Advanced Video Codec
Format profile : [email protected]
Format settings : CABAC / 4 Ref Frames
Format settings, CABAC : Yes
Format settings, Reference frames : 4 frames
Codec ID : V_MPEG4/ISO/AVC
Duration : 1 h 41 min
Bit rate : 11.5 Mb/s
Width : 1 920 pixels
Height : 1 080 pixels
Display aspect ratio : 16:9
Frame rate mode : Constant
Frame rate : 24.000 FPS
Color space : YUV
Chroma subsampling : 4:2:0
Bit depth : 8 bits
Scan type : Progressive
Bits/(Pixel*Frame) : 0.231
Stream size : 8.11 GiB (88%)
Title : Man.on.the.Brink.1981.CHINESE.1080p.BluRay.x264.DTS-FGT
Writing library : x264 core 148 r2795M aaa9aa8
Encoding settings : cabac=1 / ref=4 / deblock=1:-2:-2 / analyse=0x3:0x113 / me=umh / subme=9 / psy=1 / psy_rd=1.00:0.15 / mixed_ref=1 / me_range=16 / chroma_me=1 / trellis=2 / 8x8dct=1 / cqm=0 / deadzone=21,11 / fast_pskip=1 / chroma_qp_offset=-3 / threads=24 / lookahead_threads=3 / sliced_threads=0 / nr=0 / decimate=1 / interlaced=0 / bluray_compat=0 / constrained_intra=0 / bframes=3 / b_pyramid=2 / b_adapt=1 / b_bias=0 / direct=3 / weightb=1 / open_gop=0 / weightp=2 / keyint=250 / keyint_min=25 / scenecut=40 / intra_refresh=0 / rc_lookahead=50 / rc=2pass / mbtree=1 / bitrate=11500 / ratetol=1.0 / qcomp=0.60 / qpmin=0 / qpmax=69 / qpstep=4 / cplxblur=20.0 / qblur=0.5 / vbv_maxrate=31250 / vbv_bufsize=31250 / nal_hrd=none / filler=0 / ip_ratio=1.40 / aq=1:1.00
Language : Chinese
Default : Yes
Forced : No

Audio
ID : 2
Format : DTS
Format/Info : Digital Theater Systems
Codec ID : A_DTS
Duration : 1 h 40 min
Bit rate mode : Constant
Bit rate : 1 509 kb/s
Channel(s) : 6 channels
Channel layout : C L R Ls Rs LFE
Sampling rate : 48.0 kHz
Frame rate : 93.750 FPS (512 SPF)
Bit depth : 16 bits
Compression mode : Lossy
Stream size : 1.06 GiB (12%)
Title : Man.on.the.Brink.1981.CHINESE.1080p.BluRay.x264.DTS-FGT
Language : Chinese
Default : Yes
Forced : No

Text
ID : 3
Format : UTF-8
Codec ID : S_TEXT/UTF8
Codec ID/Info : UTF-8 Plain Text
Duration : 1 h 37 min
Bit rate : 41 b/s
Count of elements : 1537
Stream size : 30.0 KiB (0%)
Language : English
Default : Yes
Forced : No

Menu
00:00:00.000 : en:Chapter 01
00:07:42.458 : en:Chapter 02
00:19:53.000 : en:Chapter 03
00:25:10.500 : en:Chapter 04
00:32:43.500 : en:Chapter 05
00:40:29.958 : en:Chapter 06
00:48:53.250 : en:Chapter 07
00:59:42.541 : en:Chapter 08
01:08:52.833 : en:Chapter 09
01:17:34.625 : en:Chapter 10
01:23:47.291 : en:Chapter 11
01:34:31.416 : en:Chapter 12





1 个附件 售价 大小 下载 时间

Man.on.the.Brink.1981.CHINESE.1080p.BluRay.x264.DTS-FGT.zip 0 金币 46.56K 1239 次 1月前

#1楼
发帖时间:2020-11-24 20:36:46   |   回复数:1
jokingcheung
一代宗师
谢谢分享
1月前 #2楼
游客组