travismk
一代宗师

[2018] [欧美] [恐怖] [WEB-1080P] 死亡世界 Death.World.2018.1080p.WEBRip.AAC2.0.x264-BobDobbs 1.80GB

-->

帖子完整标题:死亡世界 Death.World.2018.1080p.WEBRip.AAC2.0.x264-BobDobbs 1.80GB



◎译  名 死亡世界
◎片  名 Death World
◎年  代 2018
◎产  地 美国
◎类  别 恐怖
◎语  言 英语
◎上映日期 2018-11-30(美国)
◎IMDb链接 https://www.imdb.com/title/tt9069116/
◎豆瓣评分 /10 from 0 users
◎豆瓣链接 https://movie.douban.com/subject/35324549/
◎片  长 48分钟

◎简  介

  《死亡世界》是一部由3个故事组成的僵尸选集电影“适者生存”讲述的是大学生的生存,“生命线”发生在一个zip lane公园,“反射动作”讲述的是一个保安开着一个VIP去听她的音乐会。

Video
ID : 1
Format : AVC
Format/Info : Advanced Video Codec
Format profile : [email protected]
Format settings : CABAC / 5 Ref Frames
Format settings, CABAC : Yes
Format settings, Reference frames : 5 frames
Codec ID : V_MPEG4/ISO/AVC
Duration : 47 min 30 s
Bit rate : 5 158 kb/s
Width : 1 920 pixels
Height : 1 080 pixels
Display aspect ratio : 16:9
Frame rate mode : Constant
Frame rate : 23.976 (24000/1001/189150) FPS
Color space : YUV
Chroma subsampling : 4:2:0
Bit depth : 8 bits
Scan type : Progressive
Bits/(Pixel*Frame) : 0.104
Stream size : 1.71 GiB (95%)
Writing library : x264 core 161 r10 4121277
Encoding settings : cabac=1 / ref=5 / deblock=1:0:0 / analyse=0x3:0x113 / me=hex / subme=8 / psy=1 / psy_rd=1.00:0.00 / mixed_ref=1 / me_range=16 / chroma_me=1 / trellis=2 / 8x8dct=1 / cqm=0 / deadzone=21,11 / fast_pskip=1 / chroma_qp_offset=-2 / threads=34 / lookahead_threads=5 / sliced_threads=0 / nr=0 / decimate=1 / interlaced=0 / bluray_compat=0 / stitchable=1 / constrained_intra=0 / bframes=3 / b_pyramid=2 / b_adapt=2 / b_bias=0 / direct=3 / weightb=1 / open_gop=0 / weightp=2 / keyint=infinite / keyint_min=23 / scenecut=40 / intra_refresh=0 / rc_lookahead=50 / rc=crf / mbtree=1 / crf=20.0 / qcomp=0.60 / qpmin=5 / qpmax=69 / qpstep=4 / vbv_maxrate=5500 / vbv_bufsize=15000 / crf_max=0.0 / nal_hrd=none / filler=0 / ip_ratio=1.40 / aq=1:1.00
Default : Yes
Forced : No
Color range : Limited
Color primaries : BT.709
Transfer characteristics : BT.709
Matrix coefficients : BT.709

Audio
ID : 2
Format : AAC LC
Format/Info : Advanced Audio Codec Low Complexity
Codec ID : A_AAC-2
Duration : 47 min 30 s
Bit rate : 253 kb/s
Channel(s) : 2 channels
Channel layout : L R
Sampling rate : 48.0 kHz
Frame rate : 46.875 FPS (1024 SPF)
Compression mode : Lossy
Stream size : 86.1 MiB (5%)
Language : English
Default : Yes
Forced : No





1 个附件 售价 大小 下载 时间

Death.World.2018.1080p.WEBRip.AAC2.0.x264-BobDobbs.zip 0 金币 18.63K 1010 次 6天前

#1楼
发帖时间:2021-01-13 18:13:36   |   回复数:0
游客组