travismk
一代宗师

[2020] [欧美] [恐怖] [WEB-720P] 星光 Star.Light.2020.720p.WEB.h264-WATCHER 2.64GB

-->

帖子完整标题:星光 Star.Light.2020.720p.WEB.h264-WATCHER 2.64GB



◎译  名 星光
◎片  名 Star Light
◎年  代 2020
◎产  地 美国
◎类  别 恐怖
◎语  言 英语
◎上映日期 2020-02-18(好莱坞独立电影节) / 2020-08-04(美国网络)
◎IMDb评分 3.8/10 from 189 users
◎IMDb链接 https://www.imdb.com/title/tt7445682/
◎豆瓣评分 /10 from 0 users
◎豆瓣链接 https://movie.douban.com/subject/30228775/
◎片  长 90分钟
◎导  演 米切尔·阿尔蒂里 Mitchell Altieri
◎编  剧 米切尔·阿尔蒂里 Mitchell Altieri
◎主  演 丝柯·泰勒-考普顿 Scout Taylor-Compton
      拉哈特·亚当斯 Rahart Adams
      盖瑞特·韦斯顿 Garrett Westton
      蒂凡妮·谢皮斯 Tiffany Shepis
      Bret Roberts
      杰弗·卡伦 Geoff Callan

◎标  签 美国电影 | 电影 | 恐怖 | [歐美]

◎简  介

  一名青少年在奔跑中帮助一位举世闻名的流行歌星逃脱暴力追捕者时,生活被颠倒了

Video
ID : 1
Format : AVC
Format/Info : Advanced Video Codec
Format profile : [email protected]
Format settings : CABAC / 4 Ref Frames
Format settings, CABAC : Yes
Format settings, Reference frames : 4 frames
Codec ID : V_MPEG4/ISO/AVC
Duration : 1 h 29 min
Bit rate mode : Constant
Bit rate : 3 584 kb/s
Nominal bit rate : 6 000 kb/s
Width : 1 280 pixels
Height : 544 pixels
Display aspect ratio : 2.35:1
Original display aspect ratio : 2.35:1
Frame rate mode : Constant
Frame rate : 23.976 (24000/1001/189150) FPS
Color space : YUV
Chroma subsampling : 4:2:0
Bit depth : 8 bits
Scan type : Progressive
Bits/(Pixel*Frame) : 0.215
Stream size : 2.24 GiB (85%)
Default : Yes
Forced : No
Color range : Limited
Color primaries : BT.709
Transfer characteristics : BT.709
Matrix coefficients : BT.709

Audio
ID : 2
Format : E-AC-3
Format/Info : Enhanced AC-3
Commercial name : Dolby Digital Plus
Codec ID : A_EAC3
Duration : 1 h 29 min
Bit rate mode : Constant
Bit rate : 640 kb/s
Channel(s) : 6 channels
Channel layout : L R C LFE Ls Rs
Sampling rate : 48.0 kHz
Frame rate : 31.250 FPS (1536 SPF)
Compression mode : Lossy
Stream size : 410 MiB (15%)
Title : English
Language : English
Service kind : Complete Main
Default : Yes
Forced : No

Text
ID : 3
Format : UTF-8
Codec ID : S_TEXT/UTF8
Codec ID/Info : UTF-8 Plain Text
Duration : 1 h 26 min
Bit rate : 58 b/s
Count of elements : 1326
Stream size : 37.4 KiB (0%)
Title : English [SDH]
Language : English
Default : No
Forced : No





1 个附件 售价 大小 下载 时间

Star.Light.2020.720p.WEB.h264-WATCHER.zip 0 金币 27.08K 147 次 5天前

#1楼
发帖时间:2021-01-14 08:28:03   |   回复数:0
游客组