travismk
一代宗师

[2019] [欧美] [其他] [WEB-1080P] 老虎来喝下午茶 The.Tiger.Who.Came.to.Tea.2019.1080p.WEBRip.x264-RARBG 472.56MB

-->

帖子完整标题:老虎来喝下午茶 The.Tiger.Who.Came.to.Tea.2019.1080p.WEBRip.x264-RARBG 472.56MB



◎译  名 老虎来喝下午茶
◎片  名 The Tiger Who Came to Tea
◎年  代 2019
◎产  地 英国
◎类  别 动画 / 短片
◎语  言 英语
◎上映日期 2019-12-24(英国)
◎IMDb评分 6.8/10 from 572 users
◎IMDb链接 https://www.imdb.com/title/tt8010354/
◎豆瓣评分 7.7/10 from 1026 users
◎豆瓣链接 https://movie.douban.com/subject/34771470/
◎片  长 23分钟
◎编  剧 朱迪斯·克尔 Judith Kerr
◎主  演 本尼迪克特·康伯巴奇 Benedict Cumberbatch
      塔姆辛·格雷格 Tamsin Greig
      大卫·奥伊罗 David Oyelowo
      大卫·威廉姆斯 David Walliams
      保罗·怀特豪斯 Paul Whitehouse

◎标  签 英国 | 动画 | 短片 | 动画短片 | 2019 | 温情 | 治愈 | 绘本改编

◎简  介

  故事改编自朱迪斯·克尔创作的同名绘本童书,讲述索菲与母亲在厨房喝下午茶,突然门铃响了。索菲开门发现是一只老虎在门前,于是索菲邀请老虎一起来喝下午茶。

◎获奖情况

  第30届安锡国际动画节 ?(2020)
  电视及广告动画单元电视特别节目评审奖

Video
ID : 1
Format : AVC
Format/Info : Advanced Video Codec
Format profile : [email protected]
Format settings : CABAC / 4 Ref Frames
Format settings, CABAC : Yes
Format settings, Reference frames : 4 frames
Codec ID : avc1
Codec ID/Info : Advanced Video Coding
Duration : 24 min 13 s
Bit rate : 2 500 kb/s
Width : 1 920 pixels
Height : 1 080 pixels
Display aspect ratio : 16:9
Frame rate mode : Constant
Frame rate : 25.000 FPS
Color space : YUV
Chroma subsampling : 4:2:0
Bit depth : 8 bits
Scan type : Progressive
Bits/(Pixel*Frame) : 0.048
Stream size : 433 MiB (92%)
Writing library : x264 core 152 r2851M ba24899
Encoding settings : cabac=1 / ref=4 / deblock=1:-1:-1 / analyse=0x3:0x113 / me=umh / subme=9 / psy=1 / psy_rd=1.00:0.15 / mixed_ref=1 / me_range=24 / chroma_me=1 / trellis=2 / 8x8dct=1 / cqm=0 / deadzone=21,11 / fast_pskip=1 / chroma_qp_offset=-3 / threads=16 / lookahead_threads=4 / sliced_threads=0 / nr=0 / decimate=1 / interlaced=0 / bluray_compat=0 / constrained_intra=0 / bframes=3 / b_pyramid=2 / b_adapt=2 / b_bias=0 / direct=3 / weightb=1 / open_gop=0 / weightp=2 / keyint=250 / keyint_min=25 / scenecut=40 / intra_refresh=0 / rc_lookahead=50 / rc=2pass / mbtree=1 / bitrate=2500 / ratetol=1.0 / qcomp=0.60 / qpmin=0 / qpmax=69 / qpstep=4 / cplxblur=20.0 / qblur=0.5 / vbv_maxrate=31250 / vbv_bufsize=31250 / nal_hrd=none / filler=0 / ip_ratio=1.40 / aq=3:1.00
Encoded date : UTC 2021-02-22 17:04:24
Tagged date : UTC 2021-02-22 17:04:24
Codec configuration box : avcC

Audio
ID : 2
Format : AAC LC
Format/Info : Advanced Audio Codec Low Complexity
Codec ID : mp4a-40-2
Duration : 24 min 13 s
Bit rate mode : Constant
Bit rate : 224 kb/s
Channel(s) : 6 channels
Channel layout : C L R Ls Rs LFE
Sampling rate : 48.0 kHz
Frame rate : 46.875 FPS (1024 SPF)
Compression mode : Lossy
Stream size : 38.8 MiB (8%)
Language : English
Default : Yes
Alternate group : 1
Encoded date : UTC 2021-02-22 17:04:24
Tagged date : UTC 2021-02-22 17:04:24





1 个附件 售价 大小 下载 时间

The.Tiger.Who.Came.to.Tea.2019.1080p.WEBRip.x264-RARBG.zip 0 金币 9.94K 105 次 7天前

#1楼
发帖时间:2021-02-23 12:27:35   |   回复数:0
游客组