travismk
一代宗师

[2020] [其他] [喜剧] [WEB-1080P] 里夫金的电影节/情迷電影節 Rifkins.Festival.2020.1080p.WEB-DL.DD5.1.H264-FGT 3.41GB

-->

帖子完整标题:里夫金的电影节/情迷電影節 Rifkins.Festival.2020.1080p.WEB-DL.DD5.1.H264-FGT 3.41GB



◎译  名 里夫金的电影节/情迷電影節(港)
◎片  名 Rifkin's Festival
◎年  代 2020
◎产  地 西班牙,美国,意大利
◎类  别 喜剧
◎语  言 英语,西班牙语
◎上映日期 2020-09-25(圣塞巴斯蒂安电影节)
◎IMDb评分 6/10 from 1387 users
◎IMDb链接 https://www.imdb.com/title/tt8593904/
◎豆瓣评分 7.3/10 from 4225 users
◎豆瓣链接 https://movie.douban.com/subject/30353869/
◎片  长 88分钟
◎导  演 伍迪·艾伦 Woody Allen
◎编  剧 伍迪·艾伦 Woody Allen
◎主  演 华莱士·肖恩 Wallace Shawn
      吉娜·格申 Gina Gershon
      路易·加瑞尔 Louis Garrel
      克里斯托弗·瓦尔兹 Christoph Waltz
      埃伦娜·安纳亚 Elena Anaya
      斯蒂夫·古根伯格 Steve Guttenberg
      戴米恩·查帕 Damian Chapa
      乔治娜·阿莫罗斯 Georgina Amorós
      塞尔希·洛佩斯 Sergi López
      道格拉斯·麦克格兰斯 Douglas McGrath
      鲍比·斯雷顿 Bobby Slayton
      安德莉亚·特勒帕 Andrea Trepat
      卢兹·西普里奥塔 Luz Cipriota
      本·坦普尔 Ben Temple
      埃琳娜·桑兹 Elena Sanz
      马努·弗欧拉 Manu Fullola
      戈德莉芙·范·登·布兰特 Godeliv Van den Brandt
      约翰·西希尔 John Sehil
      娜塔莉亚·迪森塔 Natalia Dicenta

◎标  签 伍迪·艾伦 | 美国 | WoodyAllen | 2020 | 喜剧 | 西班牙 | 美国电影 | 电影

◎简  介

  讲述一对美国夫妇去参加圣塞巴斯蒂安电影节,却双双出轨:妻子和一个有才华的法国导演发生婚外情,丈夫爱上了一个漂亮的当地女子。

Video
ID : 1
Format : AVC
Format/Info : Advanced Video Codec
Format profile : [email protected]
Format settings : CABAC / 4 Ref Frames
Format settings, CABAC : Yes
Format settings, Reference frames : 4 frames
Codec ID : V_MPEG4/ISO/AVC
Duration : 1 h 32 min
Bit rate : 4 910 kb/s
Width : 1 916 pixels
Height : 956 pixels
Display aspect ratio : 2.004
Frame rate mode : Constant
Frame rate : 23.976 (24000/1001/189150) FPS
Color space : YUV
Chroma subsampling : 4:2:0
Bit depth : 8 bits
Scan type : Progressive
Bits/(Pixel*Frame) : 0.112
Stream size : 3.16 GiB (93%)
Language : English
Default : Yes
Forced : No
Color range : Limited
Color primaries : BT.709
Transfer characteristics : BT.709
Matrix coefficients : BT.709

Audio
ID : 2
Format : AC-3
Format/Info : Audio Coding 3
Commercial name : Dolby Digital
Codec ID : A_AC3
Duration : 1 h 32 min
Bit rate mode : Constant
Bit rate : 384 kb/s
Channel(s) : 6 channels
Channel layout : L R C LFE Ls Rs
Sampling rate : 48.0 kHz
Frame rate : 31.250 FPS (1536 SPF)
Compression mode : Lossy
Stream size : 253 MiB (7%)
Language : English
Service kind : Complete Main
Default : Yes
Forced : No

Text
ID : 3
Format : UTF-8
Codec ID : S_TEXT/UTF8
Codec ID/Info : UTF-8 Plain Text
Duration : 46 s 162 ms
Bit rate : 52 b/s
Count of elements : 11
Stream size : 302 Bytes (0%)
Title : FORCED
Language : English
Default : Yes
Forced : No





1 个附件 售价 大小 下载 时间

Rifkins.Festival.2020.1080p.WEB-DL.DD5.1.H264-FGT.zip 0 金币 34.75K 763 次 8天前

#1楼
发帖时间:2021-04-08 08:10:08   |   回复数:0
游客组