travismk
一代宗师

[2015] [其他] [剧情] [BD-1080P] 红色战犬 Red.Dog.2017.DUBBED.1080p.BluRay.x264.DD5.1-BdC 7.69GB

-->

帖子完整标题:红色战犬 Red.Dog.2017.DUBBED.1080p.BluRay.x264.DD5.1-BdC 7.69GB



◎译  名 红色战犬/Pyos Ryzhiy
◎片  名 Пёс рыжий
◎年  代 2015
◎产  地 白俄罗斯
◎类  别 剧情 / 战争
◎语  言 俄语
◎上映日期 2016-12-03(白俄罗斯)
◎IMDb评分 6.3/10 from 63 users
◎IMDb链接 https://www.imdb.com/title/tt4706780/
◎豆瓣评分 /10 from 0 users
◎豆瓣链接 https://movie.douban.com/subject/26677348/
◎片  长 99分钟

◎简  介

  Dogs suicide bombers and dogs "live mines", "anti-tank", anti-tank dog - just as they do not call. But officially they were "dogs - tank destroyer." Sita. Few people know that in the beginning of the war the Red Army were whole units of soldiers ...

Video
ID : 1
Format : AVC
Format/Info : Advanced Video Codec
Format profile : [email protected]
Format settings : CABAC / 4 Ref Frames
Format settings, CABAC : Yes
Format settings, Reference frames : 4 frames
Codec ID : V_MPEG4/ISO/AVC
Duration : 1 h 35 min
Bit rate : 10.9 Mb/s
Width : 1 920 pixels
Height : 1 080 pixels
Display aspect ratio : 16:9
Frame rate mode : Constant
Frame rate : 25.000 FPS
Color space : YUV
Chroma subsampling : 4:2:0
Bit depth : 8 bits
Scan type : Progressive
Bits/(Pixel*Frame) : 0.210
Stream size : 7.25 GiB (94%)
Writing library : x264 core 161 r3018 db0d417
Encoding settings : cabac=1 / ref=4 / deblock=1:-3:-3 / analyse=0x3:0x113 / me=umh / subme=10 / psy=1 / psy_rd=1.05:0.00 / mixed_ref=1 / me_range=32 / chroma_me=1 / trellis=2 / 8x8dct=1 / cqm=0 / deadzone=21,11 / fast_pskip=0 / chroma_qp_offset=-2 / threads=12 / lookahead_threads=2 / sliced_threads=0 / nr=0 / decimate=0 / interlaced=0 / bluray_compat=0 / constrained_intra=0 / bframes=9 / b_pyramid=2 / b_adapt=2 / b_bias=0 / direct=3 / weightb=1 / open_gop=0 / weightp=2 / keyint=250 / keyint_min=25 / scenecut=40 / intra_refresh=0 / rc_lookahead=50 / rc=2pass / mbtree=0 / bitrate=10900 / ratetol=1.0 / qcomp=0.65 / qpmin=0 / qpmax=69 / qpstep=4 / cplxblur=20.0 / qblur=0.5 / vbv_maxrate=50000 / vbv_bufsize=62500 / nal_hrd=none / filler=0 / ip_ratio=1.30 / pb_ratio=1.20 / aq=3:0.80
Default : Yes
Forced : No
Color range : Limited
Color primaries : BT.709
Transfer characteristics : BT.709
Matrix coefficients : BT.709

Audio
ID : 2
Format : AC-3
Format/Info : Audio Coding 3
Commercial name : Dolby Digital
Codec ID : A_AC3
Duration : 1 h 35 min
Bit rate mode : Constant
Bit rate : 640 kb/s
Channel(s) : 6 channels
Channel layout : L R C LFE Ls Rs
Sampling rate : 48.0 kHz
Frame rate : 31.250 FPS (1536 SPF)
Compression mode : Lossy
Stream size : 436 MiB (6%)
Language : English
Service kind : Complete Main
Default : Yes
Forced : No

Text #1
ID : 3
Format : PGS
Muxing mode : zlib
Codec ID : S_HDMV/PGS
Codec ID/Info : Picture based subtitle format used on BDs/HD-DVDs
Duration : 1 h 31 min
Bit rate : 8 517 b/s
Count of elements : 1710
Stream size : 5.60 MiB (0%)
Language : German
Default : Yes
Forced : No

Text #2
ID : 4
Format : PGS
Muxing mode : zlib
Codec ID : S_HDMV/PGS
Codec ID/Info : Picture based subtitle format used on BDs/HD-DVDs
Duration : 1 h 31 min
Bit rate : 216 b/s
Count of elements : 24
Stream size : 146 KiB (0%)
Language : German
Default : No
Forced : No





1 个附件 售价 大小 下载 时间

Red.Dog.2017.DUBBED.1080p.BluRay.x264.DD5.1-BdC.zip 0 金币 39.12K 1730 次 7天前

#1楼
发帖时间:2021-04-08 08:46:12   |   回复数:0
游客组